osu file format v14

[General]
AudioFilename: Ende.ogg
AudioLeadIn: 1500
PreviewTime: 104365
Countdown: 0
SampleSet: Soft
StackLeniency: 0.7
Mode: 3
LetterboxInBreaks: 0
WidescreenStoryboard: 0

[Editor]
Bookmarks: 1176,5976,15576,25176,34776,41976,44376,53976,57576,58776,63576,68376,77976,83976,85176,94776,104376,113976,121176,122376,123576,129276
DistanceSpacing: 1
BeatDivisor: 4
GridSize: 4
TimelineZoom: 1

[Metadata]
Title:Ende
TitleUnicode:Ende
Artist:bj.HaLo
ArtistUnicode:bj.HaLo
Creator:Loctav
Version:EZ
Source:BMS
Tags:Trance Core BOF 2010 mania
BeatmapID:271371
BeatmapSetID:79132

[Difficulty]
HPDrainRate:6
CircleSize:7
OverallDifficulty:6
ApproachRate:5
SliderMultiplier:1.4
SliderTickRate:1

[Events]
//Background and Video events
0,0,"bg.jpg",0,0
//Break Periods
//Storyboard Layer 0 (Background)
//Storyboard Layer 1 (Fail)
//Storyboard Layer 2 (Pass)
//Storyboard Layer 3 (Foreground)
//Storyboard Sound Samples
//Background Colour Transformations
3,100,163,162,255

[TimingPoints]
1176,300,4,2,1,60,1,0
34776,-100,4,2,1,60,0,1
53976,-100,4,2,1,60,0,0
85176,-100,4,2,1,60,0,1
94776,-100,4,2,1,60,0,0
104376,-100,4,2,1,60,0,1
123576,-100,4,2,1,60,0,0

[HitObjects]
36,192,1176,1,2,0:0:0:0:
475,192,1476,1,2,0:0:0:0:
109,192,1776,1,2,0:0:0:0:
182,192,2076,1,2,0:0:0:0:
329,192,2376,1,2,0:0:0:0:
182,192,2676,1,2,0:0:0:0:
402,192,2976,1,2,0:0:0:0:
109,192,3276,1,2,0:0:0:0:
256,192,3576,128,0,4476:0:0:0:0:
109,192,4776,1,2,0:0:0:0:
256,192,5076,1,0,0:0:0:0:
475,192,5526,1,2,0:0:0:0:
402,192,5676,1,2,0:0:0:0:
329,192,5826,1,0,0:0:0:0:
109,192,5976,1,8,3:0:0:0:
109,192,6576,1,8,3:0:0:0:
109,192,7176,1,8,3:0:0:0:
109,192,7776,1,8,3:0:0:0:
182,192,8376,1,8,3:0:0:0:
182,192,8976,1,8,3:0:0:0:
182,192,9576,1,8,3:0:0:0:
182,192,10176,1,8,3:0:0:0:
329,192,10476,1,8,3:0:0:0:
475,192,10776,1,8,3:0:0:0:
475,192,11376,1,8,3:0:0:0:
475,192,11976,1,8,3:0:0:0:
475,192,12576,1,8,3:0:0:0:
402,192,13176,1,8,3:0:0:0:
402,192,13776,1,8,3:0:0:0:
402,192,14376,1,8,3:0:0:0:
402,192,14976,1,8,3:0:0:0:
475,192,15576,1,2,0:0:0:0:
36,192,15876,1,2,0:0:0:0:
402,192,16176,1,2,0:0:0:0:
109,192,16476,1,2,0:0:0:0:
329,192,16776,1,2,0:0:0:0:
182,192,17076,1,2,0:0:0:0:
402,192,17376,1,2,0:0:0:0:
109,192,17676,1,2,0:0:0:0:
36,192,17976,1,2,0:0:0:0:
182,192,18276,1,2,0:0:0:0:
329,192,18576,1,2,0:0:0:0:
475,192,18876,1,2,0:0:0:0:
109,192,19176,1,2,0:0:0:0:
402,192,19476,1,2,0:0:0:0:
475,192,19926,1,2,0:0:0:0:
402,192,20076,1,2,0:0:0:0:
329,192,20226,1,0,0:0:0:0:
36,192,20376,1,2,0:0:0:0:
475,192,20676,1,2,0:0:0:0:
109,192,20976,1,2,0:0:0:0:
402,192,21276,1,2,0:0:0:0:
182,192,21576,1,2,0:0:0:0:
329,192,21876,1,2,0:0:0:0:
109,192,22176,1,2,0:0:0:0:
402,192,22476,1,2,0:0:0:0:
475,192,22776,1,2,0:0:0:0:
329,192,23076,1,2,0:0:0:0:
182,192,23376,1,2,0:0:0:0:
36,192,23676,1,2,0:0:0:0:
402,192,23976,1,2,0:0:0:0:
109,192,24276,1,2,0:0:0:0:
475,192,24726,1,2,0:0:0:0:
402,192,24876,1,2,0:0:0:0:
329,192,25026,1,0,0:0:0:0:
36,192,25176,1,0,0:0:0:0:
256,192,25476,1,8,0:0:0:0:
475,192,25776,1,0,0:0:0:0:
256,192,26076,1,8,0:0:0:0:
109,192,26376,1,0,0:0:0:0:
256,192,26676,1,8,0:0:0:0:
402,192,26976,1,0,0:0:0:0:
256,192,27276,1,8,0:0:0:0:
109,192,27576,1,0,0:0:0:0:
36,192,27876,1,8,0:0:0:0:
402,192,28176,1,0,0:0:0:0:
475,192,28476,1,8,0:0:0:0:
36,192,28776,1,0,0:0:0:0:
109,192,29076,1,8,0:0:0:0:
475,192,29376,1,0,0:0:0:0:
402,192,29676,1,8,0:0:0:0:
182,192,29976,1,0,0:0:0:0:
109,192,30276,1,8,0:0:0:0:
329,192,30576,1,0,0:0:0:0:
402,192,30876,1,8,0:0:0:0:
109,192,31176,1,0,0:0:0:0:
182,192,31476,1,8,0:0:0:0:
402,192,31776,1,0,0:0:0:0:
329,192,32076,1,8,0:0:0:0:
36,192,32376,1,0,0:0:0:0:
256,192,32676,1,8,0:0:0:0:
475,192,32976,1,0,0:0:0:0:
256,192,33276,1,8,0:0:0:0:
109,192,33576,1,0,0:0:0:0:
256,192,33876,1,8,0:0:0:0:
402,192,34176,1,0,0:0:0:0:
256,192,34476,1,8,0:0:0:0:
256,192,34776,128,0,35376:0:0:0:0:
475,192,35376,1,2,0:0:0:0:
329,192,35676,1,2,0:0:0:0:
182,192,35976,1,2,0:0:0:0:
36,192,36276,1,2,0:0:0:0:
256,192,36576,128,0,37176:0:0:0:0:
109,192,37176,1,0,0:0:0:0:
256,192,37476,1,2,0:0:0:0:
402,192,37776,1,2,0:0:0:0:
256,192,38076,1,2,0:0:0:0:
109,192,38376,1,2,0:0:0:0:
256,192,38676,1,2,0:0:0:0:
402,192,38976,1,2,0:0:0:0:
256,192,39276,1,2,0:0:0:0:
256,192,39576,128,2,39876:0:0:0:0:
109,192,39876,1,0,0:0:0:0:
402,192,40176,1,2,0:0:0:0:
109,192,40476,1,2,0:0:0:0:
402,192,40776,1,2,0:0:0:0:
109,192,41076,1,0,0:0:0:0:
256,192,41376,128,0,41976:0:0:0:0:
329,192,41976,1,2,0:0:0:0:
182,192,42276,1,2,0:0:0:0:
402,192,42576,1,2,0:0:0:0:
109,192,42876,1,2,0:0:0:0:
475,192,43176,1,2,0:0:0:0:
36,192,43476,1,2,0:0:0:0:
256,192,43776,1,2,0:0:0:0:
256,192,44376,128,0,44976:0:0:0:0:
329,192,44976,1,0,0:0:0:0:
475,192,45276,1,2,0:0:0:0:
329,192,45576,1,2,0:0:0:0:
182,192,45876,1,0,0:0:0:0:
256,192,46176,128,0,46776:0:0:0:0:
109,192,46776,1,0,0:0:0:0:
256,192,47076,1,2,0:0:0:0:
402,192,47376,1,2,0:0:0:0:
256,192,47676,1,2,0:0:0:0:
109,192,47976,1,2,0:0:0:0:
182,192,48276,1,2,0:0:0:0:
329,192,48576,1,2,0:0:0:0:
402,192,48876,1,2,0:0:0:0:
256,192,49176,128,2,49476:0:0:0:0:
109,192,49476,1,0,0:0:0:0:
402,192,49776,1,2,0:0:0:0:
109,192,50076,1,2,0:0:0:0:
402,192,50376,1,2,0:0:0:0:
256,192,50676,1,0,0:0:0:0:
109,192,50976,128,0,51576:0:0:0:0:
329,192,51576,1,0,0:0:0:0:
182,192,51876,1,2,0:0:0:0:
402,192,52176,1,2,0:0:0:0:
109,192,52476,1,2,0:0:0:0:
36,192,52776,1,4,0:0:0:0:
256,192,53226,1,4,0:0:0:0:
475,192,53526,1,4,0:0:0:0:
475,192,53826,1,4,0:0:0:0:
36,192,53976,1,2,0:0:0:0:
475,192,54276,1,2,0:0:0:0:
109,192,54576,1,2,0:0:0:0:
182,192,54876,1,2,0:0:0:0:
329,192,55176,1,2,0:0:0:0:
182,192,55476,1,2,0:0:0:0:
402,192,55776,1,2,0:0:0:0:
109,192,56076,1,2,0:0:0:0:
475,192,56376,1,2,0:0:0:0:
36,192,56676,1,2,0:0:0:0:
402,192,56976,1,2,0:0:0:0:
109,192,57276,1,2,0:0:0:0:
475,192,57576,128,0,58776:0:0:0:0:
109,192,58776,1,2,0:0:0:0:
402,192,59076,1,2,0:0:0:0:
36,192,59376,1,2,0:0:0:0:
256,192,59676,1,2,0:0:0:0:
475,192,59976,1,2,0:0:0:0:
256,192,60276,1,2,0:0:0:0:
36,192,60576,1,2,0:0:0:0:
256,192,60876,1,2,0:0:0:0:
402,192,61176,1,2,0:0:0:0:
256,192,61476,1,2,0:0:0:0:
182,192,61776,1,2,0:0:0:0:
109,192,62076,1,2,0:0:0:0:
402,192,62376,1,2,0:0:0:0:
256,192,62676,1,0,0:0:0:0:
329,192,62976,1,2,0:0:0:0:
182,192,63276,1,0,0:0:0:0:
402,192,63576,1,0,0:0:0:0:
256,192,63876,1,2,0:0:0:0:
182,192,64176,1,0,0:0:0:0:
36,192,64476,1,2,0:0:0:0:
36,192,64776,1,0,0:0:0:0:
256,192,65076,1,2,0:0:0:0:
475,192,65376,1,0,0:0:0:0:
256,192,65676,1,2,0:0:0:0:
109,192,65976,1,0,0:0:0:0:
256,192,66276,1,2,0:0:0:0:
402,192,66576,1,2,0:0:0:0:
256,192,66876,1,2,0:0:0:0:
36,192,67176,1,4,0:0:0:0:
36,192,67326,1,4,0:0:0:0:
256,192,67626,1,4,0:0:0:0:
475,192,67926,1,4,0:0:0:0:
475,192,68226,1,4,0:0:0:0:
36,192,68376,1,0,0:0:0:0:
182,192,68676,1,8,0:0:0:0:
475,192,68976,1,0,0:0:0:0:
329,192,69276,1,8,0:0:0:0:
256,192,69576,1,0,0:0:0:0:
182,192,69876,1,8,0:0:0:0:
256,192,70176,1,0,0:0:0:0:
329,192,70476,1,8,0:0:0:0:
402,192,70776,1,0,0:0:0:0:
109,192,71076,1,8,0:0:0:0:
402,192,71376,1,0,0:0:0:0:
109,192,71676,1,8,0:0:0:0:
402,192,71976,1,2,0:0:0:0:
256,192,72276,1,8,0:0:0:0:
182,192,72576,1,2,0:0:0:0:
329,192,72876,1,8,0:0:0:0:
402,192,73176,1,0,0:0:0:0:
475,192,73476,1,8,0:0:0:0:
109,192,73776,1,0,0:0:0:0:
36,192,74076,1,8,0:0:0:0:
256,192,74376,1,0,0:0:0:0:
182,192,74676,1,8,0:0:0:0:
109,192,74976,1,0,0:0:0:0:
329,192,75276,1,8,0:0:0:0:
182,192,75576,1,0,0:0:0:0:
109,192,75876,1,8,0:0:0:0:
36,192,76176,1,0,0:0:0:0:
402,192,76476,1,8,0:0:0:0:
256,192,76776,1,4,0:0:0:0:
256,192,76926,1,0,0:0:0:0:
256,192,77226,1,4,0:0:0:0:
256,192,77526,1,4,0:0:0:0:
256,192,77826,1,4,0:0:0:0:
402,192,78276,1,8,0:0:0:40:
402,192,78876,1,8,0:0:0:0:
402,192,79476,1,8,0:0:0:40:
402,192,80076,1,8,0:0:0:0:
402,192,80676,1,8,0:0:0:40:
402,192,81276,1,8,0:0:0:0:
402,192,81876,1,8,0:0:0:40:
402,192,82476,1,8,0:0:0:0:
402,192,83076,1,8,0:0:0:40:
256,192,83676,1,0,0:0:0:0:
475,192,83976,1,2,0:0:0:0:
329,192,84276,1,0,0:0:0:0:
36,192,84576,1,2,0:0:0:0:
182,192,84876,1,2,0:0:0:0:
36,192,85176,1,0,0:0:0:0:
475,192,85476,1,8,0:0:0:0:
109,192,85776,1,0,0:0:0:0:
402,192,86076,1,8,0:0:0:0:
256,192,86376,1,0,0:0:0:0:
329,192,86676,1,8,0:0:0:0:
402,192,86976,1,0,0:0:0:0:
182,192,87276,1,8,0:0:0:0:
329,192,87576,1,0,0:0:0:0:
402,192,87876,1,8,0:0:0:0:
475,192,88176,1,0,0:0:0:0:
109,192,88476,1,8,0:0:0:0:
402,192,88776,1,2,0:0:0:0:
256,192,89076,1,8,0:0:0:0:
329,192,89376,1,2,0:0:0:0:
182,192,89676,1,8,0:0:0:0:
475,192,89976,1,0,0:0:0:0:
36,192,90276,1,8,0:0:0:0:
402,192,90576,1,0,0:0:0:0:
109,192,90876,1,8,0:0:0:0:
256,192,91176,1,0,0:0:0:0:
182,192,91476,1,8,0:0:0:0:
109,192,91776,1,0,0:0:0:0:
329,192,92076,1,8,0:0:0:0:
182,192,92376,1,0,0:0:0:0:
109,192,92676,1,8,0:0:0:0:
36,192,92976,1,0,0:0:0:0:
402,192,93276,1,8,0:0:0:0:
109,192,93576,1,2,0:0:0:0:
256,192,93876,1,8,0:0:0:0:
182,192,94176,1,2,0:0:0:0:
329,192,94476,1,8,0:0:0:0:
36,192,94776,1,2,0:0:0:0:
109,192,95076,1,8,0:0:0:0:
109,192,95676,1,10,0:0:0:0:
475,192,95976,1,2,0:0:0:0:
402,192,96276,1,8,0:0:0:0:
402,192,96876,1,10,0:0:0:0:
109,192,97176,1,2,0:0:0:0:
182,192,97476,1,8,0:0:0:0:
182,192,98076,1,10,0:0:0:0:
402,192,98376,1,2,0:0:0:0:
256,192,98676,1,8,0:0:0:0:
329,192,98976,1,2,0:0:0:0:
256,192,99276,1,8,0:0:0:0:
475,192,99576,1,2,0:0:0:0:
402,192,99876,1,8,0:0:0:0:
402,192,100476,1,10,0:0:0:0:
36,192,100776,1,2,0:0:0:0:
109,192,101076,1,8,0:0:0:0:
109,192,101676,1,10,0:0:0:0:
402,192,101976,1,2,0:0:0:0:
329,192,102276,1,8,0:0:0:0:
329,192,102876,1,10,0:0:0:0:
109,192,103176,1,4,0:0:0:0:
109,192,103326,1,0,0:0:0:0:
256,192,103626,1,4,0:0:0:0:
402,192,103926,1,4,0:0:0:0:
402,192,104226,1,6,0:0:0:0:
36,192,104376,128,0,106776:0:0:0:0:
256,192,104376,1,0,0:0:0:0:
256,192,104976,1,0,0:0:0:0:
256,192,105576,1,0,0:0:0:0:
256,192,106176,1,0,0:0:0:0:
475,192,106776,128,0,109176:0:0:0:0:
182,192,106776,1,0,0:0:0:0:
182,192,107376,1,0,0:0:0:0:
109,192,107976,1,0,0:0:0:0:
256,192,108276,1,0,0:0:0:0:
109,192,108576,1,0,0:0:0:0:
256,192,108876,1,0,0:0:0:0:
329,192,109176,1,0,0:0:0:0:
109,192,109176,128,0,111576:0:0:0:0:
329,192,109776,1,0,0:0:0:0:
329,192,110376,1,0,0:0:0:0:
329,192,110976,1,0,0:0:0:0:
182,192,111576,128,0,113976:0:0:0:0:
475,192,111576,1,0,0:0:0:0:
475,192,112176,1,0,0:0:0:0:
256,192,112776,1,0,0:0:0:0:
402,192,113076,1,0,0:0:0:0:
256,192,113376,1,0,0:0:0:0:
402,192,113676,1,0,0:0:0:0:
36,192,113976,128,0,116376:0:0:0:0:
475,192,113976,128,0,116376:0:0:0:0:
256,192,113976,1,0,0:0:0:0:
256,192,114276,1,0,0:0:0:0:
256,192,114576,1,0,0:0:0:0:
256,192,114876,1,0,0:0:0:0:
182,192,115176,1,0,0:0:0:0:
329,192,115476,1,0,0:0:0:0:
182,192,115776,1,0,0:0:0:0:
329,192,116076,1,0,0:0:0:0:
182,192,116376,128,0,118776:0:0:0:0:
329,192,116376,128,0,118776:0:0:0:0:
256,192,116376,1,0,0:0:0:0:
256,192,116676,1,0,0:0:0:0:
109,192,116976,1,0,0:0:0:0:
402,192,117276,1,0,0:0:0:0:
36,192,117576,1,0,0:0:0:0:
475,192,117876,1,0,0:0:0:0:
36,192,118176,1,0,0:0:0:0:
475,192,118476,1,0,0:0:0:0:
109,192,118776,128,0,121176:0:0:0:0:
402,192,118776,128,0,121176:0:0:0:0:
256,192,118776,1,0,0:0:0:0:
256,192,119076,1,0,0:0:0:0:
256,192,119376,1,0,0:0:0:0:
256,192,119676,1,0,0:0:0:0:
182,192,119976,1,0,0:0:0:0:
329,192,120276,1,0,0:0:0:0:
182,192,120576,1,0,0:0:0:0:
329,192,120876,1,0,0:0:0:0:
256,192,121176,128,0,122376:0:0:0:0:
36,192,121176,1,0,0:0:0:0:
475,192,121476,1,0,0:0:0:0:
109,192,121776,1,0,0:0:0:0:
402,192,122076,1,0,0:0:0:0:
182,192,122376,128,0,123576:0:0:0:0:
329,192,122376,128,0,123576:0:0:0:0:
256,192,123576,1,4,0:0:0:0:
